<?xml version="1.0" standalone="no"?>
<!DOCTYPE svg PUBLIC "-//W3C//DTD SVG 1.1//EN" "http://www.w3.org/Graphics/SVG/1.1/DTD/svg11.dtd" >
<svg xmlns="http://www.w3.org/2000/svg">
<metadata>Generated by IcoMoon</metadata>
<defs>
<font id="icomoon" horiz-adv-x="1024">
<font-face units-per-em="1024" ascent="960" descent="-64" />
<missing-glyph horiz-adv-x="1024" />
<glyph unicode="&#x20;" horiz-adv-x="512" d="" />
<glyph unicode="&#xe900;" glyph-name="cross2" d="M1011.499 947.499v0c-7.721 7.718-18.386 12.492-30.165 12.492s-22.445-4.774-30.165-12.492l-439.168-439.168-439.168 439.168c-7.721 7.718-18.386 12.492-30.165 12.492s-22.445-4.774-30.165-12.492v0c-7.718-7.721-12.492-18.386-12.492-30.165s4.774-22.445 12.492-30.165l439.168-439.168-439.168-439.168c-7.718-7.721-12.492-18.386-12.492-30.165s4.774-22.445 12.492-30.165v0c7.721-7.718 18.386-12.492 30.165-12.492s22.445 4.774 30.165 12.492l439.168 439.168 439.168-439.168c7.721-7.718 18.386-12.492 30.165-12.492s22.445 4.774 30.165 12.492v0c7.718 7.721 12.492 18.386 12.492 30.165s-4.774 22.445-12.492 30.165l-439.168 439.168 439.168 439.168c7.718 7.721 12.492 18.386 12.492 30.165s-4.774 22.445-12.492 30.165v0z" />
<glyph unicode="&#xe901;" glyph-name="cross" d="M602.491 448.001l402.757 402.713c25.001 25.001 25.001 65.535 0 90.534-25.001 25.001-65.535 25.001-90.534 0v0l-402.715-402.755-402.713 402.755c-25.001 25.001-65.535 25.001-90.534 0s-25.001-65.535 0-90.534l402.755-402.713-402.755-402.715c-25.001-25.001-25.001-65.535 0-90.534s65.535-25.001 90.534 0l402.713 402.757 402.713-402.757c25.001-25.001 65.535-25.001 90.534 0 25.001 25.001 25.001 65.535 0 90.534l-402.755 402.715z" />
<glyph unicode="&#xe902;" glyph-name="user" d="M768 704c0-141.385-114.615-256-256-256s-256 114.615-256 256c0 141.385 114.615 256 256 256s256-114.615 256-256zM512 362.666c-211.98-0.236-383.764-172.020-384-384 0-23.564 19.102-42.666 42.666-42.666h682.666c23.564 0 42.666 19.102 42.666 42.666-0.234 211.98-172.018 383.766-383.998 384z" />
<glyph unicode="&#xe903;" glyph-name="user-o" d="M512 448c141.385 0 256 114.615 256 256s-114.615 256-256 256c-141.385 0-256-114.615-256-256v0c0.146-141.326 114.674-255.854 255.986-256h0.014zM512 874.667c94.257 0 170.667-76.41 170.667-170.667s-76.41-170.667-170.667-170.667c-94.257 0-170.667 76.41-170.667 170.667v0c0 94.257 76.41 170.667 170.667 170.667v0zM512 362.667c-211.98-0.243-383.758-172.021-384-383.977v-0.023c0-23.564 19.103-42.667 42.667-42.667s42.667 19.103 42.667 42.667v0c0 164.949 133.718 298.667 298.667 298.667s298.667-133.718 298.667-298.667v0c0-23.564 19.103-42.667 42.667-42.667s42.667 19.103 42.667 42.667v0c-0.243 211.98-172.021 383.758-383.977 384h-0.023z" />
<glyph unicode="&#xe904;" glyph-name="time" d="M512 960c-282.77 0-512-229.23-512-512s229.23-512 512-512c282.77 0 512 229.23 512 512v0c-0.316 282.643-229.358 511.685-511.97 512h-0.030zM512 21.333c-235.641 0-426.667 191.025-426.667 426.667s191.025 426.667 426.667 426.667c235.641 0 426.667-191.025 426.667-426.667v0c-0.267-235.534-191.133-426.4-426.641-426.667h-0.025zM512 704c-23.564 0-42.667-19.103-42.667-42.667v0-184.533l-143.829-90.112c-12.153-7.681-20.106-21.045-20.106-36.267 0-23.617 19.145-42.762 42.762-42.762 8.395 0 16.225 2.419 22.831 6.599l-0.175-0.104 163.84 102.4c12.099 7.669 20.013 20.988 20.013 36.156 0 0.159-0.001 0.318-0.003 0.476v-0.024 208.171c0 23.564-19.103 42.667-42.667 42.667v0z" />
<glyph unicode="&#xe905;" glyph-name="search2" d="M1005.27 45.004l-198.193 198.277c148.297 198.177 107.862 479.052-90.315 627.349s-479.052 107.862-627.349-90.315-107.862-479.052 90.315-627.349c159.192-119.125 377.839-119.125 537.033 0l198.277-198.277c24.917-24.917 65.315-24.917 90.23 0 24.917 24.917 24.917 65.315 0 90.23l0.002 0.086zM449.897 191.234c-176.13 0-318.911 142.78-318.911 318.911s142.78 318.911 318.911 318.911 318.911-142.78 318.911-318.911c-0.187-176.051-142.858-318.723-318.911-318.911z" />
<glyph unicode="&#xe906;" glyph-name="search" d="M1011.499 8.832l-254.677 254.677c60.083 73.045 96.512 167.522 96.512 270.507 0 236.019-191.331 427.349-427.349 427.349s-427.349-191.331-427.349-427.349c0-236.019 191.331-427.349 427.349-427.349 102.985 0 197.462 36.429 271.248 97.103l-0.741-0.591 254.677-254.677c7.665-7.41 18.12-11.977 29.641-11.977 23.564 0 42.667 19.103 42.667 42.667 0 11.521-4.567 21.976-11.989 29.653l0.012-0.012zM426.667 192c-188.513 0-341.333 152.82-341.333 341.333s152.82 341.333 341.333 341.333c188.513 0 341.333-152.82 341.333-341.333v0c-0.218-188.425-152.908-341.115-341.312-341.333h-0.021z" />
<glyph unicode="&#xe907;" glyph-name="pinterest" d="M810 855c-70.4 67.8-168 105-274.6 105-162.8 0-263-66.8-318.4-122.8-68.2-69-107.4-160.6-107.4-251.4 0-114 47.6-201.4 127.6-234 5.4-2.2 10.8-3.4 16-3.4 16.8 0 30.2 11 34.8 28.8 2.6 10.2 9 35.2 11.6 46 5.8 21.4 1.2 31.8-11.6 46.8-23 27.4-33.8 59.6-33.8 101.6 0 125 93 257.6 265.4 257.6 136.8 0 221.8-77.8 221.8-202.8 0-79-17-152-48-206-21.4-37.4-59.2-82-117.2-82-25 0-47.6 10.2-61.8 28.2-13.4 17-17.8 38.8-12.4 61.8 6 25.8 14.4 52.8 22.4 78.8 14.6 47.6 28.6 92.4 28.6 128.2 0 61.2-37.6 102.4-93.8 102.4-71.2 0-127-72.4-127-164.8 0-45.2 12-79.2 17.4-92.2-9-38-62.4-264-72.4-306.6-5.8-24.8-41-221.4 17.2-237 65.6-17.6 124.2 173.8 130 195.4 4.8 17.6 21.8 84.2 32 125 31.6-30.4 82.6-51 132.2-51 93.4 0 177.4 42 236.6 118.4 57.4 74 89 177.2 89 290.6 0.2 88.4-37.8 175.8-104.2 239.4z" />
<glyph unicode="&#xe908;" glyph-name="print" d="M810.667 789.333c0 94.257-76.41 170.667-170.667 170.667v0h-256c-94.257 0-170.667-76.41-170.667-170.667v0-42.667h597.333zM341.333 320h341.333c70.692 0 128-57.308 128-128v-128c0-70.692-57.308-128-128-128h-341.333c-70.692 0-128 57.308-128 128v128c0 70.692 57.308 128 128 128zM810.667 661.333h-597.333c-117.762-0.146-213.188-95.571-213.333-213.319v-170.681c0.118-86.843 52.108-161.515 126.643-194.703l1.357-0.54v109.909c0.146 117.762 95.571 213.188 213.319 213.333h341.348c117.762-0.146 213.188-95.571 213.333-213.319v-109.923c75.892 33.728 127.882 108.399 128 195.227v170.682c-0.146 117.762-95.571 213.188-213.319 213.333h-0.014zM768 490.667h-85.333c-23.564 0-42.667 19.103-42.667 42.667s19.103 42.667 42.667 42.667v0h85.333c23.564 0 42.667-19.103 42.667-42.667s-19.103-42.667-42.667-42.667v0z" />
<glyph unicode="&#xe909;" glyph-name="print-o" d="M810.667 704v85.333c0 94.257-76.41 170.667-170.667 170.667v0h-256c-94.257 0-170.667-76.41-170.667-170.667v0-85.333c-117.762-0.146-213.188-95.571-213.333-213.319v-213.347c0.146-117.762 95.571-213.188 213.319-213.333h0.014c0-70.692 57.308-128 128-128v0h341.333c70.692 0 128 57.308 128 128v0c117.762 0.146 213.188 95.571 213.333 213.319v213.347c-0.146 117.762-95.571 213.188-213.319 213.333h-0.014zM298.667 789.333c0 47.128 38.205 85.333 85.333 85.333v0h256c47.128 0 85.333-38.205 85.333-85.333v0-85.333h-426.667zM725.333 64c0-23.564-19.103-42.667-42.667-42.667v0h-341.333c-23.564 0-42.667 19.103-42.667 42.667v0 170.667c0 23.564 19.103 42.667 42.667 42.667v0h341.333c23.564 0 42.667-19.103 42.667-42.667v0zM938.667 277.333c0-70.692-57.308-128-128-128v0 85.333c0 70.692-57.308 128-128 128v0h-341.333c-70.692 0-128-57.308-128-128v0-85.333c-70.692 0-128 57.308-128 128v0 213.333c0 70.692 57.308 128 128 128v0h597.333c70.692 0 128-57.308 128-128v0zM768 533.333h-85.333c-23.564 0-42.667-19.103-42.667-42.667s19.103-42.667 42.667-42.667v0h85.333c23.564 0 42.667 19.103 42.667 42.667s-19.103 42.667-42.667 42.667v0z" />
<glyph unicode="&#xe90a;" glyph-name="heart" d="M746.667 878.208c-100.624-1.615-187.857-57.412-233.958-139.428l-0.709-1.372c-46.81 83.388-134.043 139.185-234.442 140.797l-0.224 0.003c-154.725-6.931-277.54-134.053-277.54-289.86 0-3.847 0.075-7.677 0.223-11.488l-0.017 0.548c0-194.005 204.203-405.888 375.467-549.547 36.633-30.943 84.387-49.75 136.533-49.75s99.901 18.808 136.849 50.010l-0.316-0.26c171.264 143.659 375.467 355.541 375.467 549.547 0.131 3.263 0.206 7.093 0.206 10.94 0 155.807-122.815 282.929-276.917 289.838l-0.623 0.022z" />
<glyph unicode="&#xe90b;" glyph-name="heart-o" d="M746.667 878.208c-100.624-1.615-187.857-57.412-233.958-139.428l-0.709-1.372c-46.81 83.388-134.043 139.185-234.442 140.797l-0.224 0.003c-154.725-6.931-277.54-134.053-277.54-289.86 0-3.847 0.075-7.677 0.223-11.488l-0.017 0.548c0-194.005 204.203-405.888 375.467-549.547 36.633-30.943 84.387-49.75 136.533-49.75s99.901 18.808 136.849 50.010l-0.316-0.26c171.264 143.659 375.467 355.541 375.467 549.547 0.131 3.263 0.206 7.093 0.206 10.94 0 155.807-122.815 282.929-276.917 289.838l-0.623 0.022zM593.707 93.141c-21.911-18.545-50.492-29.82-81.707-29.82s-59.795 11.275-81.893 29.974l0.186-0.154c-219.221 183.936-344.96 360.405-344.96 484.267-0.19 3.301-0.298 7.162-0.298 11.049 0 108.71 84.7 197.637 191.706 204.388l0.592 0.030c107.599-6.781 192.298-95.708 192.298-204.418 0-3.887-0.108-7.748-0.322-11.581l0.024 0.532c0-23.564 19.103-42.667 42.667-42.667s42.667 19.103 42.667 42.667v0c-0.19 3.301-0.298 7.162-0.298 11.049 0 108.71 84.7 197.637 191.706 204.388l0.592 0.030c107.599-6.781 192.298-95.708 192.298-204.418 0-3.887-0.108-7.748-0.322-11.581l0.024 0.532c0-123.861-125.739-300.331-344.96-484.096z" />
<glyph unicode="&#xe90c;" glyph-name="comment-alt" d="M853.333 960h-682.667c-94.257 0-170.667-76.41-170.667-170.667v0-512c0-94.257 76.41-170.667 170.667-170.667v0h123.733l189.909-160.555c7.383-6.279 17.027-10.098 27.563-10.098s20.18 3.819 27.623 10.148l-0.061-0.050 190.165 160.555h123.733c94.257 0 170.667 76.41 170.667 170.667v0 512c0 94.257-76.41 170.667-170.667 170.667v0zM298.667 746.667h213.333c23.564 0 42.667-19.103 42.667-42.667s-19.103-42.667-42.667-42.667v0h-213.333c-23.564 0-42.667 19.103-42.667 42.667s19.103 42.667 42.667 42.667v0zM725.333 320h-426.667c-23.564 0-42.667 19.103-42.667 42.667s19.103 42.667 42.667 42.667v0h426.667c23.564 0 42.667-19.103 42.667-42.667s-19.103-42.667-42.667-42.667v0zM725.333 490.667h-426.667c-23.564 0-42.667 19.103-42.667 42.667s19.103 42.667 42.667 42.667v0h426.667c23.564 0 42.667-19.103 42.667-42.667s-19.103-42.667-42.667-42.667v0z" />
<glyph unicode="&#xe90d;" glyph-name="comment-alt-o" d="M853.333 960h-682.667c-94.257 0-170.667-76.41-170.667-170.667v0-512c0-94.257 76.41-170.667 170.667-170.667v0h123.733l189.909-160.555c7.383-6.279 17.027-10.098 27.563-10.098s20.18 3.819 27.623 10.148l-0.061-0.050 190.165 160.555h123.733c94.257 0 170.667 76.41 170.667 170.667v0 512c0 94.257-76.41 170.667-170.667 170.667v0zM938.667 277.333c0-47.128-38.205-85.333-85.333-85.333v0h-123.733c-21.055-0.007-40.326-7.638-55.204-20.282l0.122 0.101-162.517-137.259-162.432 137.259c-14.763 12.549-34.045 20.181-55.109 20.181-0.021 0-0.041 0-0.062 0h-123.73c-47.128 0-85.333 38.205-85.333 85.333v0 512c0 47.128 38.205 85.333 85.333 85.333v0h682.667c47.128 0 85.333-38.205 85.333-85.333v0zM298.667 661.333h213.333c23.564 0 42.667 19.103 42.667 42.667s-19.103 42.667-42.667 42.667v0h-213.333c-23.564 0-42.667-19.103-42.667-42.667s19.103-42.667 42.667-42.667v0zM725.333 576h-426.667c-23.564 0-42.667-19.103-42.667-42.667s19.103-42.667 42.667-42.667v0h426.667c23.564 0 42.667 19.103 42.667 42.667s-19.103 42.667-42.667 42.667v0zM725.333 405.333h-426.667c-23.564 0-42.667-19.103-42.667-42.667s19.103-42.667 42.667-42.667v0h426.667c23.564 0 42.667 19.103 42.667 42.667s-19.103 42.667-42.667 42.667v0z" />
<glyph unicode="&#xe90e;" glyph-name="comment" d="M839.467 842.325c-87.604 73.298-201.481 117.811-325.754 117.811-23.562 0-46.751-1.6-69.463-4.698l2.641 0.295c-252.964-33.801-446.039-248.22-446.039-507.733 0-282.74 229.182-511.952 511.911-512h297.904c117.762 0.146 213.188 95.571 213.333 213.319v330.851c-9.734 146.037-79.099 274.169-183.714 361.489l-0.82 0.665zM341.333 661.333h170.667c23.564 0 42.667-19.103 42.667-42.667s-19.103-42.667-42.667-42.667v0h-170.667c-23.564 0-42.667 19.103-42.667 42.667s19.103 42.667 42.667 42.667v0zM682.667 234.667h-341.333c-23.564 0-42.667 19.103-42.667 42.667s19.103 42.667 42.667 42.667v0h341.333c23.564 0 42.667-19.103 42.667-42.667s-19.103-42.667-42.667-42.667v0zM682.667 405.333h-341.333c-23.564 0-42.667 19.103-42.667 42.667s19.103 42.667 42.667 42.667v0h341.333c23.564 0 42.667-19.103 42.667-42.667s-19.103-42.667-42.667-42.667v0z" />
<glyph unicode="&#xe90f;" glyph-name="comment-o" d="M1024 480.128c-17.141 269.116-239.606 480.896-511.536 480.896-283.053 0-512.512-229.459-512.512-512.512s229.459-512.512 512.512-512.512c0.092 0 0.184 0 0.275 0h297.927c117.772 0.121 213.212 95.561 213.333 213.322v330.807zM938.667 149.333c0-70.692-57.308-128-128-128v0h-297.941c-126.538 0.059-240.239 54.968-318.626 142.239l-0.35 0.396c-67.404 74.65-108.645 174.051-108.645 283.085 0 17.732 1.091 35.209 3.209 52.368l-0.207-2.055c23.991 194.535 175.381 347.451 367.104 373.555l2.219 0.247c16.633 2.202 35.888 3.472 55.435 3.499h0.032c0.343 0.001 0.748 0.002 1.154 0.002 103.41 0 198.16-37.082 271.676-98.673l-0.66 0.538c87.475-73.067 145.133-179.295 153.524-299.107l0.076-1.351zM341.333 576h170.667c23.564 0 42.667 19.103 42.667 42.667s-19.103 42.667-42.667 42.667v0h-170.667c-23.564 0-42.667-19.103-42.667-42.667s19.103-42.667 42.667-42.667v0zM682.667 490.667h-341.333c-23.564 0-42.667-19.103-42.667-42.667s19.103-42.667 42.667-42.667v0h341.333c23.564 0 42.667 19.103 42.667 42.667s-19.103 42.667-42.667 42.667v0zM682.667 320h-341.333c-23.564 0-42.667-19.103-42.667-42.667s19.103-42.667 42.667-42.667v0h341.333c23.564 0 42.667 19.103 42.667 42.667s-19.103 42.667-42.667 42.667v0z" />
<glyph unicode="&#xe910;" glyph-name="hard" d="M512 704c-70.692 0-128-57.308-128-128v0-512c0-70.692 57.308-128 128-128s128 57.308 128 128v0 512c0 70.692-57.308 128-128 128v0zM896 960c-70.692 0-128-57.308-128-128v0-768c0-70.692 57.308-128 128-128s128 57.308 128 128v0 768c0 70.692-57.308 128-128 128v0zM128 448c-70.692 0-128-57.308-128-128v0-256c0-70.692 57.308-128 128-128s128 57.308 128 128v0 256c0 70.692-57.308 128-128 128v0z" />
<glyph unicode="&#xe911;" glyph-name="medium" d="M512 704c-70.692 0-128-57.308-128-128v0-512c0-70.692 57.308-128 128-128s128 57.308 128 128v0 512c0 70.692-57.308 128-128 128v0zM896 960c-70.692 0-128-57.308-128-128v0-768c0-70.692 57.308-128 128-128s128 57.308 128 128v0 768c0 70.692-57.308 128-128 128v0zM938.667 64c0-23.564-19.103-42.667-42.667-42.667s-42.667 19.103-42.667 42.667v0 768c0 23.564 19.103 42.667 42.667 42.667s42.667-19.103 42.667-42.667v0zM128 448c-70.692 0-128-57.308-128-128v0-256c0-70.692 57.308-128 128-128s128 57.308 128 128v0 256c0 70.692-57.308 128-128 128v0z" />
<glyph unicode="&#xe912;" glyph-name="easy" d="M512 704c-70.692 0-128-57.308-128-128v0-512c0-70.692 57.308-128 128-128s128 57.308 128 128v0 512c0 70.692-57.308 128-128 128v0zM554.667 64c0-23.564-19.103-42.667-42.667-42.667s-42.667 19.103-42.667 42.667v0 512c0 23.564 19.103 42.667 42.667 42.667s42.667-19.103 42.667-42.667v0zM896 960c-70.692 0-128-57.308-128-128v0-768c0-70.692 57.308-128 128-128s128 57.308 128 128v0 768c0 70.692-57.308 128-128 128v0zM938.667 64c0-23.564-19.103-42.667-42.667-42.667s-42.667 19.103-42.667 42.667v0 768c0 23.564 19.103 42.667 42.667 42.667s42.667-19.103 42.667-42.667v0zM128 448c-70.692 0-128-57.308-128-128v0-256c0-70.692 57.308-128 128-128s128 57.308 128 128v0 256c0 70.692-57.308 128-128 128v0z" />
<glyph unicode="&#xe913;" glyph-name="serves" d="M1012.437 7.936c7.179-7.621 11.591-17.919 11.591-29.248 0-23.58-19.115-42.695-42.695-42.695-12.252 0-23.298 5.16-31.084 13.426l-0.020 0.021-233.941 249.131c-44.203-1.408-247.765-7.467-183.979 88.747 7.629 7.752 18.234 12.556 29.962 12.556 4.24 0 8.333-0.628 12.192-1.796l-0.298 0.077c30.447-9.787 65.474-15.428 101.818-15.428 16.124 0 31.988 1.11 47.521 3.259l-1.798-0.204c2.052 0.278 4.423 0.436 6.832 0.436 15.694 0 29.816-6.73 39.638-17.462l0.037-0.041zM640 362.667c0.089 0 0.196 0 0.302 0 58.802 0 112.037 23.838 150.567 62.378l220.63 220.672c7.738 7.728 12.525 18.409 12.525 30.208 0 23.577-19.113 42.69-42.69 42.69-11.778 0-22.442-4.77-30.166-12.483v0l-220.629-220.672c-23.123-22.927-54.963-37.095-90.113-37.095-20.070 0-39.062 4.619-55.969 12.853l0.759-0.334 298.283 298.283c8.036 7.769 13.026 18.647 13.026 30.69 0 23.564-19.103 42.667-42.667 42.667-12.043 0-22.92-4.989-30.678-13.014l-298.38-298.295c-7.9 16.148-12.519 35.14-12.519 55.21 0 35.149 14.168 66.989 37.104 90.122l220.748 220.62c7.41 7.665 11.977 18.12 11.977 29.641 0 23.564-19.103 42.667-42.667 42.667-11.521 0-21.976-4.567-29.653-11.989l-220.66-220.617c-38.531-38.657-62.354-91.994-62.354-150.895 0-43.785 13.164-84.495 35.751-118.388l-0.49 0.782-449.536-449.536c-7.41-7.665-11.977-18.12-11.977-29.641 0-23.564 19.103-42.667 42.667-42.667 11.521 0 21.976 4.567 29.653 11.989l449.524 449.524c33.101-22.161 73.824-35.368 117.631-35.371h0.001zM232.619 406.827c35.371-33.323 68.011 10.923 91.776 34.603 15.246 15.409 24.665 36.609 24.665 60.010 0 5.942-0.607 11.742-1.763 17.342l0.095-0.552c-26.325 73.472 38.016 159.232-15.232 218.325l-190.123 198.997c-15.058 14.643-35.642 23.672-58.334 23.672-45.81 0-83.025-36.796-83.703-82.445l-0.001-0.064c10.112-196.864 82.56-297.301 232.619-469.888z" />
<glyph unicode="&#xe914;" glyph-name="serves2" d="M56.875 651.179c-36.224 73.216-108.075 254.677-5.675 302.421 9.44 4.038 20.425 6.386 31.958 6.386 23.002 0 43.823-9.339 58.877-24.433l0.002-0.002 211.627-226.133c7.883-7.749 12.768-18.525 12.768-30.443 0-23.57-19.107-42.677-42.677-42.677-11.652 0-22.214 4.67-29.915 12.24l0.006-0.006-208.512 222.72c5.077-161.152 99.968-281.6 206.549-402.731 8.103-7.798 13.136-18.735 13.136-30.848 0-23.632-19.157-42.789-42.789-42.789-11.519 0-21.975 4.552-29.667 11.954l0.014-0.013c-68.096 70.473-126.586 150.867-172.956 238.652l-2.745 5.7zM768.213 268.8c-9.858 10.773-23.98 17.503-39.675 17.503-2.409 0-4.78-0.159-7.105-0.466l0.273 0.029c-13.735-1.945-29.599-3.055-45.724-3.055-36.344 0-71.37 5.641-104.251 16.096l2.434-0.668c-3.561 1.090-7.654 1.718-11.894 1.718-11.727 0-22.333-4.803-29.956-12.55l-0.005-0.006c-63.744-96.256 139.691-90.155 183.979-88.747l233.941-249.131c7.806-8.287 18.852-13.447 31.104-13.447 23.58 0 42.695 19.115 42.695 42.695 0 11.329-4.412 21.627-11.612 29.269l0.020-0.021zM640 362.667c0.089 0 0.196 0 0.302 0 58.802 0 112.037 23.838 150.567 62.378l220.63 220.672c7.738 7.728 12.525 18.409 12.525 30.208 0 23.577-19.113 42.69-42.69 42.69-11.778 0-22.442-4.77-30.166-12.483v0l-220.629-220.672c-23.123-22.927-54.963-37.095-90.113-37.095-20.070 0-39.062 4.619-55.969 12.853l0.759-0.334 298.283 298.283c8.036 7.769 13.026 18.647 13.026 30.69 0 23.564-19.103 42.667-42.667 42.667-12.043 0-22.92-4.989-30.678-13.014l-298.38-298.295c-7.9 16.148-12.519 35.14-12.519 55.21 0 35.149 14.168 66.989 37.104 90.122l220.748 220.62c7.41 7.665 11.977 18.12 11.977 29.641 0 23.564-19.103 42.667-42.667 42.667-11.521 0-21.976-4.567-29.653-11.989l-220.66-220.617c-38.531-38.657-62.354-91.994-62.354-150.895 0-43.785 13.164-84.495 35.751-118.388l-0.49 0.782-449.536-449.536c-7.41-7.665-11.977-18.12-11.977-29.641 0-23.564 19.103-42.667 42.667-42.667 11.521 0 21.976 4.567 29.653 11.989l449.524 449.524c33.101-22.161 73.824-35.368 117.631-35.371h0.001z" />
<glyph unicode="&#xe915;" glyph-name="envelope-o" d="M810.667 917.333h-597.333c-117.762-0.146-213.188-95.571-213.333-213.319v-512.014c0.146-117.762 95.571-213.188 213.319-213.333h597.348c117.762 0.146 213.188 95.571 213.333 213.319v512.014c-0.146 117.762-95.571 213.188-213.319 213.333h-0.014zM213.333 832h597.333c53.487-0.109 99.263-33.007 118.305-79.657l0.309-0.855-326.741-326.784c-23.199-23.109-55.2-37.396-90.539-37.396s-67.339 14.287-90.543 37.4l-326.737 326.78c19.351 47.505 65.126 80.403 118.6 80.512h0.014zM810.667 64h-597.333c-70.692 0-128 57.308-128 128v0 448l275.797-275.627c38.641-38.546 91.972-62.38 150.869-62.38s112.229 23.835 150.874 62.385l275.793 275.623v-448c0-70.692-57.308-128-128-128v0z" />
<glyph unicode="&#xe916;" glyph-name="envelope" d="M1022.037 723.541l-359.168-359.168c-38.641-38.546-91.972-62.38-150.869-62.38s-112.229 23.835-150.874 62.385l-359.164 359.164c-0.597-6.741-1.963-12.843-1.963-19.541v-512c0.146-117.762 95.571-213.188 213.319-213.333h597.348c117.762 0.146 213.188 95.571 213.333 213.319v512.014c0 6.699-1.365 12.8-1.963 19.541zM602.539 424.704l389.717 389.76c-37.803 61.906-104.914 102.653-181.558 102.869h-597.365c-76.676-0.216-143.787-40.963-181.059-101.936l-0.53-0.933 389.717-389.76c23.199-23.109 55.2-37.396 90.539-37.396s67.339 14.287 90.543 37.4l-0.004-0.004z" />
<glyph unicode="&#xe917;" glyph-name="instagram" d="M512 867.755c136.704 0 152.917-0.512 206.891-2.987 55.808-2.56 113.28-15.275 153.941-55.936 41.045-41.045 53.376-97.963 55.936-153.941 2.475-53.973 2.987-70.187 2.987-206.891s-0.512-152.917-2.987-206.891c-2.517-55.509-15.531-113.536-55.936-153.941-41.045-41.045-97.92-53.376-153.941-55.936-53.973-2.475-70.187-2.987-206.891-2.987s-152.917 0.512-206.891 2.987c-55.083 2.517-113.877 15.829-153.941 55.936-40.832 40.832-53.376 98.304-55.936 153.941-2.475 53.973-2.987 70.187-2.987 206.891s0.512 152.917 2.987 206.891c2.517 55.296 15.659 113.664 55.936 153.941 40.96 40.96 98.091 53.376 153.941 55.936 53.973 2.475 70.187 2.987 206.891 2.987zM512 960c-139.051 0-156.501-0.597-211.115-3.072-79.147-3.627-157.739-25.643-214.955-82.859-57.429-57.429-79.232-135.851-82.859-214.955-2.475-54.613-3.072-72.064-3.072-211.115s0.597-156.501 3.072-211.115c3.627-79.061 25.728-157.867 82.859-214.955 57.387-57.387 135.936-79.232 214.955-82.859 54.613-2.475 72.064-3.072 211.115-3.072s156.501 0.597 211.115 3.072c79.104 3.627 157.781 25.685 214.955 82.859 57.472 57.472 79.232 135.851 82.859 214.955 2.475 54.613 3.072 72.064 3.072 211.115s-0.597 156.501-3.072 211.115c-3.627 79.147-25.685 157.781-82.859 214.955-57.301 57.301-136.064 79.275-214.955 82.859-54.613 2.475-72.064 3.072-211.115 3.072zM512 710.912c-145.195 0-262.912-117.717-262.912-262.912s117.717-262.912 262.912-262.912 262.912 117.717 262.912 262.912c0 145.195-117.717 262.912-262.912 262.912zM512 277.333c-94.251 0-170.667 76.416-170.667 170.667s76.416 170.667 170.667 170.667 170.667-76.416 170.667-170.667-76.416-170.667-170.667-170.667zM846.763 721.323c0-33.932-27.508-61.44-61.44-61.44s-61.44 27.508-61.44 61.44c0 33.932 27.508 61.44 61.44 61.44s61.44-27.508 61.44-61.44z" />
<glyph unicode="&#xe918;" glyph-name="facebook" d="M602-64v452.2h150.8l31 180.8-181.8-0.6v123.2c0 52.6-3.2 88.4 72 88.4h108.8l0.2 172.8c-25.4 2.2-68.6 7.2-136 7.2-141 0-225.8-85-225.8-240.8v-150.2h-180.8v-180.8h180.8v-452.2h180.8z" />
<glyph unicode="&#xe919;" glyph-name="email" d="M512 960c-282.643-0.316-511.685-229.358-512-511.97v-0.030c-5.376-408.448 476.117-658.304 806.4-418.859 11.543 7.758 19.036 20.766 19.036 35.525 0 23.564-19.103 42.667-42.667 42.667-9.619 0-18.494-3.183-25.631-8.553l0.109 0.079c-275.115-199.381-676.181 8.747-671.915 349.141 23.424 566.016 829.995 565.888 853.333 0v-85.333c0-47.128-38.205-85.333-85.333-85.333s-85.333 38.205-85.333 85.333v0 85.333c-10.752 338.304-501.291 338.261-512 0 1.39-140.725 115.792-254.268 256.714-254.268 76.334 0 144.888 33.316 191.912 86.2l0.227 0.26c29.895-52.046 85.164-86.533 148.488-86.533 93.673 0 169.721 75.468 170.658 168.919l0.001 0.089v85.333c-0.316 282.643-229.358 511.685-511.97 512h-0.030zM512 277.333c-94.257 0-170.667 76.41-170.667 170.667s76.41 170.667 170.667 170.667v0c94.257 0 170.667-76.41 170.667-170.667s-76.41-170.667-170.667-170.667v0z" />
<glyph unicode="&#xe91a;" glyph-name="email-alt" d="M512 960c-282.643-0.316-511.685-229.358-512-511.97v-0.030c-5.333-408.491 476.117-658.304 806.4-418.859 16.676 11.715 27.44 30.865 27.44 52.529 0 35.346-28.654 64-64 64-13.925 0-26.811-4.447-37.316-11.999l0.191 0.13c-245.461-179.968-610.56 9.301-604.715 314.197 20.139 509.013 747.904 508.928 768 0v-64c0-35.346-28.654-64-64-64s-64 28.654-64 64v0 64c-10.752 338.304-501.291 338.261-512 0 1.248-140.834 115.706-254.52 256.716-254.52 66.877 0 127.781 25.572 173.469 67.471l-0.19-0.172c35.429-41.312 87.683-67.321 146.011-67.321 105.526 0 191.169 85.133 191.994 190.464v64.078c-0.316 282.643-229.358 511.685-511.97 512h-0.030zM512 320c-70.692 0-128 57.308-128 128s57.308 128 128 128v0c70.692 0 128-57.308 128-128s-57.308-128-128-128v0z" />
<glyph unicode="&#xe91b;" glyph-name="photo" d="M756 832l-60.2 78.2c-24.4 31.2-61.8 49.6-101.4 49.8h-164.8c-39.6-0.2-77-18.6-101.4-49.8l-60.2-78.2h488zM810.6 746.6h-597.2c-117.8 0-213.2-95.6-213.4-213.2v-384c0.2-117.8 95.6-213.2 213.4-213.4h597.4c117.8 0.2 213.2 95.6 213.4 213.4v384c-0.4 117.6-95.8 213.2-213.6 213.2zM512 106.6c-141.4 0-256 114.6-256 256s114.6 256 256 256 256-114.6 256-256c-0.2-141.2-114.6-255.8-256-256z" />
<glyph unicode="&#xe91c;" glyph-name="photo-o" d="M810.667 789.333h-21.675l-93.184 120.832c-23.728 30.328-60.276 49.681-101.351 49.835h-164.889c-41.1-0.154-77.648-19.507-101.163-49.552l-0.213-0.283-93.184-120.832h-21.675c-117.762-0.146-213.188-95.571-213.333-213.319v-426.681c0.146-117.762 95.571-213.188 213.319-213.333h597.348c117.762 0.146 213.188 95.571 213.333 213.319v426.681c-0.146 117.762-95.571 213.188-213.319 213.333h-0.014zM395.776 858.027c7.898 10.128 20.085 16.593 33.784 16.64h164.872c13.704-0.061 25.886-6.521 33.721-16.545l0.071-0.095 52.992-68.693h-338.432zM938.667 149.333c0-70.692-57.308-128-128-128v0h-597.333c-70.692 0-128 57.308-128 128v0 426.667c0 70.692 57.308 128 128 128v0h597.333c70.692 0 128-57.308 128-128v0zM512 618.667c-141.385 0-256-114.615-256-256s114.615-256 256-256c141.385 0 256 114.615 256 256v0c-0.146 141.326-114.674 255.854-255.986 256h-0.014zM512 192c-94.257 0-170.667 76.41-170.667 170.667s76.41 170.667 170.667 170.667c94.257 0 170.667-76.41 170.667-170.667v0c0-94.257-76.41-170.667-170.667-170.667v0z" />
<glyph unicode="&#xe91d;" glyph-name="no-photo-o" d="M512 618.6c-141.4 0-256-114.6-256-256s114.6-256 256-256 256 114.6 256 256c-0.2 141.4-114.6 256-256 256zM512 192c-94.2 0-170.6 76.4-170.6 170.6s76.4 170.6 170.6 170.6 170.6-76.4 170.6-170.6-76.4-170.6-170.6-170.6zM1024 576c-0.2 117.8-95.6 213.2-213.4 213.4h-21.6l-93.2 120.8c-24.4 31.2-61.8 49.6-101.4 49.8h-164.8c-39.6-0.2-77-18.6-101.4-49.8l-93.2-120.8h-21.6c-40.4 0-78.2-11.4-110.6-31l-26.4 21.6c-17.4 14.2-43.2 11.6-57.4-5.8l-8.2-10c-14.2-17.4-11.6-43.2 5.8-57.4l18-14.6c-21.8-33.4-34.6-73.4-34.6-116.2v-426.6c0.2-117.8 95.6-213.2 213.4-213.4h597.4c40.4 0 78.2 11.4 110.6 31l26.4-21.6c17.4-14.2 43.2-11.6 57.4 5.8l8.2 10c14.2 17.4 11.6 43.2-5.8 57.4l-18 14.6c21.8 33.4 34.4 73.4 34.6 116.2v426.6zM395.8 858c8 10.4 20.6 16.6 33.8 16.6h164.8c13.2 0 25.6-6.2 33.8-16.6l53-68.6h-338.4l53 68.6zM810.6 21.4h-597.2c-70.6 0-128 57.4-128 128v426.6c0 22.4 5.8 43.4 15.8 61.6l746.8-610.8c-11.8-3.6-24.4-5.4-37.4-5.4zM176 698.4c11.8 3.6 24.2 5.6 37.2 5.6h597.4c70.6 0 128-57.4 128-128v-426.6c0-22.4-5.8-43.4-15.8-61.6l-746.8 610.6z" />
<glyph unicode="&#xe91e;" glyph-name="no-photo" d="M756 831l-60.2 78.2c-24.4 31.2-61.8 49.6-101.4 49.8h-164.8c-39.6-0.2-77-18.6-101.4-49.8l-60.2-78.2h488zM1024 532.4c-0.2 117.8-95.6 213.2-213.4 213.4h-597.2c-27.2 0-53.2-5.2-77.2-14.4l-59.8 48.6c-17.4 14.2-43.2 11.6-57.4-5.8l-8.2-10c-14.2-17.4-11.6-43.2 5.8-57.4l38.6-31.6c-34.2-37.8-55.2-87.8-55.2-142.8v-384c0.2-117.8 95.6-213.2 213.4-213.4h597.4c40.8 0 78.8 11.6 111.2 31.4l25.6-21c17.4-14.2 43.2-11.6 57.4 5.8l8.2 10c14.2 17.4 11.6 43.2-5.8 57.4l-17.4 14.2c21.6 33.2 34 73 34 115.6v384zM512 105.6c-141.4 0-256 114.6-256 256 0 44.8 11.4 86.8 31.6 123.4l389.6-318.8c-44.4-37.6-102.2-60.4-165.2-60.6zM347.8 558c44.4 37.2 101.8 59.6 164.2 59.6 141.4 0 256-114.6 256-256 0-44.2-11.2-85.8-31-122l-389.2 318.4z" />
<glyph unicode="&#xe91f;" glyph-name="tik-tok" d="M958.507 539.051c-91.264 0-175.872 29.184-244.907 78.763v-357.76c0-178.688-145.365-324.011-324.011-324.011-69.035 0-133.077 21.76-185.685 58.709-83.541 58.667-138.325 155.691-138.325 265.301 0 178.688 145.365 324.053 324.053 324.053 14.848 0 29.355-1.237 43.648-3.157v-179.712c-13.824 4.309-28.416 6.827-43.648 6.827-81.579 0-147.968-66.389-147.968-148.011 0-56.832 32.256-106.197 79.36-130.987 20.523-10.795 43.861-16.981 68.651-16.981 79.701 0 144.725 63.403 147.712 142.421l0.128 705.493h176.043c0-15.275 1.493-30.165 4.139-44.672 12.416-67.072 52.224-124.629 107.392-160.597 38.4-25.045 84.224-39.68 133.376-39.68v-176z" />
<glyph unicode="&#xe920;" glyph-name="twitter" d="M919.168 656.896c0.597-9.003 0.597-18.048 0.597-27.136 0-277.632-211.371-597.76-597.76-597.76v0.171c-114.133-0.171-225.92 32.512-322.005 94.165 16.597-2.005 33.28-2.987 50.005-3.029 94.635-0.085 186.539 31.659 260.907 90.112-89.899 1.707-168.747 60.331-196.267 145.92 31.488-6.059 63.915-4.821 94.848 3.584-98.048 19.797-168.533 105.941-168.533 205.952 0 0.896 0 1.792 0 2.645 29.227-16.299 61.909-25.301 95.36-26.283-92.331 61.653-120.832 184.448-65.067 280.448 106.667-131.243 264.064-211.029 432.981-219.52-16.939 72.96 6.229 149.419 60.757 200.747 84.608 79.573 217.685 75.477 297.259-9.131 47.061 9.259 92.16 26.539 133.419 50.987-15.701-48.64-48.512-89.941-92.373-116.224 41.685 4.992 82.347 16.128 120.704 33.109-28.203-42.197-63.701-79.019-104.832-108.757z" />
<glyph unicode="&#xe921;" glyph-name="menu-dots" d="M170.667 448c0-47.128-38.205-85.333-85.333-85.333s-85.333 38.205-85.333 85.333c0 47.128 38.205 85.333 85.333 85.333s85.333-38.205 85.333-85.333zM597.333 448c0-47.128-38.205-85.333-85.333-85.333s-85.333 38.205-85.333 85.333c0 47.128 38.205 85.333 85.333 85.333s85.333-38.205 85.333-85.333zM1024 448c0-47.128-38.205-85.333-85.333-85.333s-85.333 38.205-85.333 85.333c0 47.128 38.205 85.333 85.333 85.333s85.333-38.205 85.333-85.333z" />
<glyph unicode="&#xe922;" glyph-name="share-2" d="M824.875 334.208c-67.717-0.057-127.504-33.958-163.366-85.699l-0.432-0.658-277.717 125.397c9.391 22.064 14.85 47.729 14.85 74.669 0 26.743-5.379 52.231-15.115 75.438l0.479-1.286 277.333 126.037c36.364-52.095 96.022-85.75 163.541-85.75 109.809 0 198.827 89.018 198.827 198.827s-89.018 198.827-198.827 198.827c-109.809 0-198.827-89.018-198.827-198.827 0-0.108 0-0.217 0-0.325v0.017c0.198-11.987 1.432-23.555 3.615-34.782l-0.202 1.246-294.827-133.973c-35.52 33.342-83.454 53.824-136.173 53.824-109.997 0-199.168-89.171-199.168-199.168s89.171-199.168 199.168-199.168c52.41 0 100.093 20.244 135.654 53.339l-0.121-0.112 295.595-133.461c-1.945-9.96-3.162-21.513-3.368-33.313l-0.002-0.18c0-0.013 0-0.028 0-0.043 0-109.974 89.151-199.125 199.125-199.125s199.125 89.151 199.125 199.125c0 109.974-89.151 199.125-199.125 199.125-0.015 0-0.030 0-0.045 0h0.002zM824.875 874.667c0.013 0 0.028 0 0.043 0 62.846 0 113.792-50.946 113.792-113.792s-50.946-113.792-113.792-113.792c-62.846 0-113.792 50.946-113.792 113.792v0c0.049 62.811 50.942 113.719 113.742 113.792h0.007zM199.125 334.208c-0.013 0-0.028 0-0.043 0-62.846 0-113.792 50.946-113.792 113.792s50.946 113.792 113.792 113.792c62.846 0 113.792-50.946 113.792-113.792v0c-0.073-62.801-50.951-113.695-113.74-113.792h-0.009zM824.875 21.333c-62.846 0-113.792 50.946-113.792 113.792s50.946 113.792 113.792 113.792c62.846 0 113.792-50.946 113.792-113.792v0c-0.049-62.826-50.966-113.743-113.787-113.792h-0.005z" />
<glyph unicode="&#xe923;" glyph-name="copy-line-icon" horiz-adv-x="838" d="M601.25 25l152.083 160h-152.083v-160zM681.25 883.333c0-14.083-11.417-25.417-25.417-25.417-14.083 0-25.417 11.417-25.417 25.417v25.75h-579.5v-768.667h25.083c14.083 0 25.417-11.417 25.417-25.417 0-14.083-11.417-25.417-25.417-25.417h-30.333c-12.583 0-24 5.083-32.25 13.417l0.083 0.083c-8.333 8.333-13.417 19.75-13.417 32.25v779c-0.083 12.583 5 24 13.333 32.25 8.25 8.333 19.667 13.417 32.25 13.417h589.917c12.5 0 23.917-5.167 32.167-13.417v0l0.083-0.083c8.25-8.25 13.417-19.667 13.417-32.167v-31zM838 205.417c0-11.667-7.833-21.5-18.5-24.5l-224-235.583c-4.667-5.667-11.75-9.25-19.667-9.25-0.5 0-1 0-1.583 0.083-0.5 0-1-0.083-1.5-0.083h-370.333c-12.583 0-24 5.083-32.25 13.417l0.083 0.083-0.083 0.083c-8.25 8.25-13.417 19.667-13.417 32.167v779.167c0 12.583 5.167 24 13.417 32.25l0.083-0.083c8.333 8.25 19.75 13.417 32.167 13.417h589.917c12.5 0 23.917-5.167 32.167-13.417v0l0.083-0.083c8.25-8.25 13.417-19.667 13.417-32.167v-555.5zM787.083 235.833v519.667h-579.417v-768.667h342.75v223.583c0 14.083 11.417 25.417 25.417 25.417h211.25z" />
<glyph unicode="&#xe924;" glyph-name="copy-link-icon" horiz-adv-x="926" d="M813.917 786.583v0l0.083-0.167c30.833-0.083 58.667-12.583 78.833-32.75 20-20.083 32.5-47.833 32.5-78.5h0.167v-627.583h-0.167c-0.083-30.667-12.583-58.583-32.75-78.833-20.083-20-47.833-32.5-78.5-32.5v-0.167l-493.5 0.167c-30.75 0.083-58.667 12.5-78.833 32.75-20 20.083-32.5 47.833-32.583 78.5v0c0 216.333 0 411.167 0 627.5v0.083h0.167c0.083 30.75 12.667 58.667 32.833 78.833 20.083 20 47.75 32.5 78.5 32.583v0.167h0.167c164.333-0.083 328.75-0.083 493.083-0.083v0zM0.167 331.833l-0.167 516.583v0.083h0.167c0.083 30.75 12.667 58.667 32.75 78.833 20.083 20 47.833 32.5 78.5 32.583v0.083h493.417c64.083 0 74.167-83 0.083-84.667l-493.417 0.167c-7.333 0-14-3.083-18.917-8.083-4.917-4.833-8-11.667-8-18.917h0.167v-26.5c0-163.417 0-326.75 0-490.083 0-68.833-84.583-72.667-84.583-0.083v0zM840.917 47.583v627.583h0.167c0 7.25-3.083 14-8.083 18.917-4.917 4.833-11.667 8-19 8v-0.167l-493.5 0.167c-7.333 0-14-3.167-18.917-8.083-4.917-4.833-8-11.667-8-18.917h0.167v-627.583h-0.167c0-7.333 3.167-14 8.083-18.917s11.667-8 18.917-8v0.167l493.5-0.167c7.25 0 14 3.167 18.917 8.083 4.917 4.833 8 11.667 8 18.917h-0.083z" />
<glyph unicode="&#xe925;" glyph-name="reset-update-icon" horiz-adv-x="1060" d="M916.474 768.421c15.361-19.072 29.6-39.265 43.666-64.378 51.692-91.82 73.525-196.153 64.636-298.070-8.716-99.587-46.859-197.016-115.379-278.48-24.595-29.255-51.002-55.057-78.789-77.408-95.876-77.063-209.529-115.12-322.837-114.085-113.308 1.122-226.184 41.25-320.507 120.643-27.529 23.128-53.332 49.448-76.891 78.789-55.316 68.692-90.871 149.207-104.247 234.21-13.203 83.449-5.092 171.127 26.493 255.957 30.118 80.688 76.114 152.573 136.177 208.925 57.129 53.59 127.115 93.028 208.148 112.704 25.371 6.127 51.26 10.183 77.581 11.823 26.407 1.726 53.418 1.122 81.119-1.899 17.346-1.899 29.859-17.518 27.96-34.864s-17.518-29.859-34.864-27.96c-23.991 2.675-47.377 3.193-70.246 1.726s-45.133-4.919-66.708-10.097c-69.987-16.914-130.308-51.002-179.843-97.429-52.9-49.707-93.546-113.308-120.298-184.934-27.701-74.302-34.864-151.106-23.3-224.027 11.736-74.129 42.803-144.461 91.043-204.524 21.315-26.493 44.184-49.88 68.261-70.159 82.759-69.642 181.483-104.851 280.465-105.8s198.483 32.448 282.709 100.191c25.026 20.107 48.499 42.976 70.159 68.779 59.718 70.936 92.942 156.111 100.622 243.357 7.853 89.49-11.391 181.137-56.697 261.739-13.721 24.336-27.701 43.753-43.235 62.479l-4.574-126.857c-0.604-17.432-15.188-31.067-32.62-30.377-17.432 0.604-31.067 15.188-30.377 32.62l7.335 202.108c0.604 17.432 15.188 31.067 32.62 30.377 1.122 0 2.157-0.173 3.193-0.259v0l195.894-27.529c17.259-2.416 29.341-18.295 26.925-35.641-2.416-17.259-18.295-29.341-35.641-26.925l-107.958 15.275z" />
</font>
</defs>
</svg>
